Πέμπτη, 5 Σεπτεμβρίου 2013

ΤΟ ΒΙΟΝΙΚΟ ΜΥΡΜΗΓΚΙ - ATOM ANT «ΜΕΤΑΓΛΩΤΤΙΣΜΕΝΟ ΣΤΑ ΕΛΛΗΝΙΚΑ»



ΤΟ ΒΙΟΝΙΚΟ ΜΥΡΜΗΓΚΙ - ATOM ANT «ΜΕΤΑΓΛΩΤΤΙΣΜΕΝΟ ΣΤΑ ΕΛΛΗΝΙΚΑ»


Ένα παλιο παιδικο της hanna-barbera με θεμα τις περιπετειες ενος μυρμηγκιου με υπερανθρωπη δυναμη.


Τεχνικά Χαρακτηριστικά:

Format                           : AVI
Format/Info                      : Audio Video Interleave
File size                        : 345 MiB
Duration                         : 53mn 20s
Overall bit rate                 : 904 Kbps
Writing application              : MEncoder r33883
Writing library                  : VirtualDub build 32842/release

Video
ID                               : 0
Format                           : MPEG-4 Visual
Format profile                   : Simple@L3
Format settings, BVOP            : No
Format settings, QPel            : No
Format settings, GMC             : No warppoints
Format settings, Matrix          : Default (H.263)
Codec ID                         : XVID
Codec ID/Hint                    : XviD
Duration                         : 53mn 20s
Bit rate                         : 769 Kbps
Width                            : 512 pixels
Height                           : 384 pixels
Display aspect ratio             : 4:3
Frame rate                       : 25.000 fps
Resolution                       : 24 bits
Colorimetry                      : 4:2:0
Scan type                        : Progressive
Bits/(Pixel*Frame)               : 0.156
Stream size                      : 293 MiB (85%)
Writing library                  : XviD 63

Audio
ID                               : 1
Format                           : MPEG Audio
Format version                   : Version 1
Format profile                   : Layer 3
Format settings, Mode            : Joint stereo / MS Stereo
Codec ID                         : 55
Codec ID/Hint                    : MP3
Duration                         : 53mn 20s
Bit rate mode                    : Variable
Bit rate                         : 123 Kbps
Channel(s)                       : 2 channels
Sampling rate                    : 44.1 KHz
Resolution                       : 16 bits
Stream size                      : 46.9 MiB (14%)
Alignment                        : Aligned on interleaves
Interleave, duration             : 26 ms (0.65 video frame)
Interleave, preload duration     : 539 ms
Κατεβάστε εδώ:

Atom.Mirmigki.avi

Η ΠΑΡΕΑ ΜΟΥ

 
Powered by Blogger