Πέμπτη, 10 Οκτωβρίου 2013

ΟΙ ΔΡΑΚΟΙ: ΦΩΤΙΑ ΚΑΙ ΠΑΓΟΣ - Dragons: Fire & Ice (2004) «ΜΕΤΑΓΛΩΤΤΙΣΜΕΝΟ ΣΤΑ ΕΛΛΗΝΙΚΑ»



ΟΙ ΔΡΑΚΟΙ: ΦΩΤΙΑ ΚΑΙ ΠΑΓΟΣ - Dragons: Fire & Ice (2004) «ΜΕΤΑΓΛΩΤΤΙΣΜΕΝΟ ΣΤΑ ΕΛΛΗΝΙΚΑ»


Σε μια Εποχή Θρύλων, δύο Βασίλεια - οι Ντρέγκαρ και οι Νορβάγκεν - βρίσκονταν σε πόλεμο για σχεδόν χίλια χρόνια.

Οι Μέγα-Δράκοι που έφεραν την Ειρήνη και τη Σοφία στην επικράτειαέχουν σχεδόν εξαφανιστεί, ενώ κάθε πλευρά, ειδικά ο Πρίγκιπας Ντέβ απο τους Νορβάγκενκαι η Πριγκίπισσα Κίρα απο τους Ντρέγκαρ, κατηγορεί την άλλη για την εξαφάνιση των μεγαλοπρεπών θηρίων.


Μόνο ένας αινιγματικός μάγος με το όνομα Ζίνοζ φαίνεται να έχει κάποια λύση για το μυστήριο.

Όλα όμως αλλάζουν όταν εμφανίζεται ένας τεράστιος Μαύρος Δράκος μέσα απο την Πύλη του Κόσμου των Δράκων, που φέρνει μαζί του δώρα ικανά να αλλάξουν μια για πάντα την μοίρα των Βασίλειων...

Επιβλητικοί Δράκοι, μαγεία και υπέροχα ψηφιακά γραφικά, σας φέρνουν τον μεσαιωνικό κόσμο στην οθόνη σας!.




Είδος Ταινίας: Animation, Περιπέτειας, Οικογενειακή
Πρεμιέρα: 11/09/2004 (Καναδάς) - 2006 (Ελλάδα DVD)
Παραγωγή: Jonathan Goodwill, Delna Bhesania, Cathy Schoch
Σκηνοθεσία: Keith Ingham
Σενάριο: Richard Side
Ηθοποιοί(Φωνές):
Θανάσης Κουρλαμπάς, Νέστωρ Κοψιδάς, Αλεξάνδρα Λέρτα, Αργύρης Παυλίδης, Γιώργος Πετρόχειλος, Λουκάς Φραγκούλης
Μετάφραση: Χρήστος Λαζάρου
Μέγεθος: 1.02 GΒ
Διάρκεια: 72 Λεπτά
Γλώσσα: Ελληνικά



Format                         : AVI
Format/Info                    : Audio Video Interleave
Format profile                 : OpenDML
File size                      : 1.03 GiB
Duration                       : 1h 12mn
Overall bit rate               : 2 037 Kbps
Writing application            : MEncoder version Beta 4.4.5 building on 20110111



Video
ID                             : 0
Format                         : MPEG-4 Visual
Format profile                 : Advanced Simple@L5
Format settings, BVOP          : 2
Format settings, QPel          : No
Format settings, GMC           : No warppoints
Format settings, Matrix        : Default (H.263)
Codec ID                       : XVID
Codec ID/Hint                  : XviD
Duration                       : 1h 12mn
Bit rate                       : 1 583 Kbps
Width                          : 720 pixels
Height                         : 404 pixels
Display aspect ratio           : 16:9
Original display aspect ratio  : 16:9
Frame rate                     : 25.000 fps
Color space                    : YUV
Chroma subsampling             : 4:2:0
Bit depth                      : 8 bits
Scan type                      : Progressive
Compression mode               : Lossy
Bits/(Pixel*Frame)             : 0.218
Stream size                    : 816 MiB (78%)
Writing library                : XviD 1.2.1 (UTC 2008-12-04)



Audio
ID                             : 1
Format                         : AC-3
Format/Info                    : Audio Coding 3
Mode extension                 : CM (complete main)
Format settings, Endianness    : Big
Codec ID                       : 2000
Duration                       : 1h 12mn
Bit rate mode                  : Constant
Bit rate                       : 448 Kbps
Channel(s)                     : 6 channels
Channel positions              : Front: L C R, Side: L R, LFE
Sampling rate                  : 48.0 KHz
Bit depth                      : 16 bits
Compression mode               : Lossy
Delay relative to video        : 40ms
Stream size                    : 231 MiB (22%)
Alignment                      : Split accross interleaves
Interleave, duration           : 500 ms (12.50 video frames)
Interleave, preload duration   : 500 ms



Κατεβάστε εδώ:


drakakia-fwtia-pagos.avi

Κωδικός αποσυμπίεσης των αρχείων rar:

thelwseires

Η ΠΑΡΕΑ ΜΟΥ

 
Powered by Blogger