Τετάρτη, 4 Δεκεμβρίου 2013

Η ΜΠΑΡΜΠΙ ΚΑΙ ΟΙ ΑΔΕΛΦΟΥΛΕΣ ΤΗΣ ΣΤΗΝ ΑΚΑΔΗΜΙΑ ΤΩΝ ΠΟΝΥ (2013) «ΜΕΤΑΓΛΩΤΤΙΣΜΕΝΟ ΣΤΑ ΕΛΛΗΝΙΚΑ» - BARBIE AND HER SISTERS IN A PONY TALE «GREEK AUDIO»

Η ΜΠΑΡΜΠΙ ΚΑΙ ΟΙ ΑΔΕΛΦΟΥΛΕΣ ΤΗΣ ΣΤΗΝ ΑΚΑΔΗΜΙΑ ΤΩΝ ΠΟΝΙ (2013) - BARBIE AND HER SISTERS IN A PONY TALE «ΜΕΤΑΓΛΩΤΤΙΣΜΕΝΟ ΣΤΑ ΕΛΛΗΝΙΚΑ»

Η ΜΠΑΡΜΠΙ ΚΑΙ ΟΙ ΑΔΕΛΦΟΥΛΕΣ ΤΗΣ ΣΤΗΝ ΑΚΑΔΗΜΙΑ ΤΩΝ ΠΟΝΥ (2013)
«ΜΕΤΑΓΛΩΤΤΙΣΜΕΝΟ ΣΤΑ ΕΛΛΗΝΙΚΑ» - BARBIE AND HER SISTERS IN A PONY TALE «GREEK AUDIO»
**ΝΕΑ ΤΑΙΝΙΑ**

Η Μπάρμπι και οι αδελφές της πηγαίνουν στην Ελβετία για μια περιπέτεια στις μαγευτικές Άλπεις και είναι ενθουσιασμένες που θα περάσουν το καλοκαίρι τους σε μια ακαδημία με άλογα.
Η Μπάρμπι ανυπομονεί να βρει καινούργιο άλογο για να το φέρει στο Μαλιμπού.

Η Στέισι είναι πολύ ενθουσιασμένη να αποδείξει οτι είναι ιππέας.
Το μόνο που θέλει η Τσέλσι είναι να ιππεύσει μεγάλο άλογο και η Σκίπερ…… απλά ας πούμε ενδιαφέρεται περισσότερο να γράψει για αυτήν την εμπειρία παρά να την ζήσει. 
Οι διακοπές τους ξεκίνησαν υπέροχα,αλλά όταν η Μπάρμπι ανακαλύπτει ένα μυστηριώδες άλογο στο δάσος τα πράγματα γίνονται πραγματικά μαγευτικά.



Format : AVI
Format/Info : Audio Video Interleave
File size : 939 MiB
Duration : 1h 11mn
Overall bit rate : 1 844 Kbps
Writing application : Lavf53.21.0

Video
ID : 0
Format : MPEG-4 Visual
Format profile : Advanced Simple@L5
Format settings, BVOP : 2
Format settings, QPel : No
Format settings, GMC : No warppoints
Format settings, Matrix : Default (H.263)
Muxing mode : Packed bitstream
Codec ID : XVID
Codec ID/Hint : XviD
Duration : 1h 11mn
Bit rate : 1 450 Kbps
Width : 720 pixels
Height : 404 pixels
Display aspect ratio : 16:9
Frame rate : 25.000 fps
Color space : YUV
Chroma subsampling : 4:2:0
Bit depth : 8 bits
Scan type : Progressive
Compression mode : Lossy
Bits/(Pixel*Frame) : 0.199
Stream size : 738 MiB (79%)
Writing library : XviD 1.2.1 (UTC 2008-12-04)

Audio
ID : 1
Format : AC-3
Format/Info : Audio Coding 3
Mode extension : CM (complete main)
Format settings, Endianness : Big
Codec ID : 2000
Duration : 1h 11mn
Bit rate mode : Constant
Bit rate : 384 Kbps
Channel(s) : 6 channels
Channel positions : Front: L C R, Side: L R, LFE
Sampling rate : 48.0 KHz
Bit depth : 16 bits
Compression mode : Lossy
Stream size : 195 MiB (21%)
Alignment : Aligned on interleaves
Interleave, duration : 32 ms (0.80 video frame)


Σκηνοθεσία:

Kyran Kelly
Παραγωγή:
Michelle Cogan
Susan Sullivan
Dan Mokriy
David Wiebe
Rob Hudnut
Kallan Kagan
Σενάριο:
Cydne Clark
Steve Granat
Ηθοποιοί:
Kelly Sheridan, Kazumi Evans

Κατεβάστε εδώ:
hmpikaitaalogaths13.rar

Κωδικός αποσυμπίεσης των αρχείων rar:
thelwseires

Η ΠΑΡΕΑ ΜΟΥ

 
Powered by Blogger