Τετάρτη, 4 Δεκεμβρίου 2013

ΠΕΠΠΑ: ΤΟ ΓΟΥΡΟΥΝΑΚΙ - DVD4 - ΚΑΤΑΙΓΙΔΑ ΚΑΙ ΑΛΛΕΣ ΙΣΤΟΡΙΕΣ «ΜΕΤΑΓΛΩΤΤΙΣΜΕΝΟ ΣΤΑ ΕΛΛΗΝΙΚΑ» - PEPPA PIG DVD4 «GREEK AUDIO»



ΠΕΠΠΑ: ΤΟ ΓΟΥΡΟΥΝΑΚΙ - DVD4 - ΚΑΤΑΙΓΙΔΑ ΚΑΙ ΑΛΛΕΣ ΙΣΤΟΡΙΕΣ «ΜΕΤΑΓΛΩΤΤΙΣΜΕΝΟ ΣΤΑ ΕΛΛΗΝΙΚΑ» - PEPPA PIG
DVD4 «GREEK AUDIO»

Η Πέππα είναι ένα χαριτωμένο, αξιαγάπητο γουρουνάκι. Της αρέσει να παίζει, να κάνει αστεία, να επισκέπτεται απίθανα μέρη και να γνωρίζει καινούργιους φίλους. Και φυσικά, τρελαίνεται να χοροπηδάει στους νερόλακκους μαζί με τον αδελφούλη της τον Τζορτζ!


Τα DVD της αγαπημένης ηρωίδας είναι μεταγλωττισμένα, ωστόσο προσφέρουν και την επιλογη της Αγγλικής γλώσσας με σκοπό την ψυχαγωγική εξάσκηση των παιδιών.

Το DVD περιλαμβάνει τα επεισόδια:

1. Μάθημα μπαλέτου
2. Καταιγίδα
3. Καθαρίζουμε το αυτοκίνητο
4. Φαγητό
5. Κάμπινγκ
6. Νυσταγμένη πριγκίπισσα
7. Tο δεντρόσπιτο
8. Πάρτι μασκέ
9. Το μουσείο
10. Πολύ ζεστή μέρα




Τεχνικά Χαρακτηριστικά - Πληροφορίες

Video
Format : MPEG Video
Format version : Version 2
Format profile : Main@Main
Format settings, BVOP : Yes
Format settings, Matrix : Default
Format settings, GOP : M=3, N=12
Bit rate : 7 557 Kbps
Width : 720 pixels
Height : 576 pixels
Display aspect ratio : 16:9
Frame rate : 25.000 fps
Standard : PAL
Color space : YUV
Chroma subsampling : 4:2:0
Bit depth : 8 bits
Scan type : Interlaced
Scan order : Bottom Field First
Compression mode : Lossy
Bits/(Pixel*Frame) : 0.729
Time code of first frame : 00:00:00:00
Time code source : Group of pictures header
Stream size : 36.7 KiB (0%)

Audio
Format : AC-3
Format/Info : Audio Coding 3
Mode extension : CM (complete main)
Format settings, Endianness : Big
Muxing mode : DVD-Video
Bit rate mode : Constant
Bit rate : 192 Kbps
Channel(s) : 2 channels
Channel positions : Front: L R
Sampling rate : 48.0 KHz
Bit depth : 16 bits
Compression mode : Lossy
Delay relative to video : -80ms
Stream size : 7.35 MiB (2%)



Κατεβάστε εδώ:
PeppaGR4.iso

Η ΠΑΡΕΑ ΜΟΥ

 
Powered by Blogger