Τετάρτη, 4 Δεκεμβρίου 2013

MARVEL: PLANET HULK (2010) «ΜΕΤΑΓΛΩΤΤΙΣΜΕΝΟ ΣΤΑ ΕΛΛΗΝΙΚΑ»



MARVEL: PLANET HULK (2010) «ΜΕΤΑΓΛΩΤΤΙΣΜΕΝΟ ΣΤΑ ΕΛΛΗΝΙΚΑ»

Τίτλος ταινίας: PLANET HULK.
Ελληνικός Τίτλος: Planet Hulk.
Έτος παραγωγής: 2010.
Είδος ταινίας: Animation, Περιπέτεια, Δράσης.
Στούντιο Παραγωγής: Lionsgate.
Γλώσσα ομιλίας: Ελληνικά (Μεταγλωτισμένο).
Διάρκεια ταινίας: 1 ώρα & 17 λεπτά.
Σκηνοθεσία:   Sam Liu.
Ηθοποιοί (Μεταγλώτιση): ΠΕΤΡΟΣ ΔΑΜΟΥΛΗΣ, ΧΡΗΣΤΟΣ ΘΑΝΟΣ, ΝΤΙΝΟΣ ΣΟΥΤΗΣ, ΝΙΚΟΣ ΝΙΚΑΣ, ΣΤΑΥΡΟΣ ΜΑΥΡΙΔΗΣ, ΒΑΣΙΛΗΣ ΜΗΛΙΟΣ, ΕΙΡΗΝΗ ΚΥΡΜΙΖΑΚΗ, ΑΝΤΩΝΗΣ ΖΙΩΓΑΣ, ΧΡΥΣΑ ΔΙΑΜΑΝΤΟΠΟΥΛΟΥ.

Προδομένος από τους ήρωες της Γης (τους Ιλλουμινάτι) και εξόριστος στο διάστημα, ο Χουλκ προσγειώνεται στον μακρινό πλανήτη Σακαάρ, που βρίσκεται κάτω από το τυραννικό καθεστώς του Κόκκινου Βασιλιά. Έχοντας πουληθεί ως σκλάβος, ο Χουλκ γίνεται ο ισχυρότερος μονομάχος του πλανήτη. Μαζί με άλλους μονομάχους ξεκινούν τη δική τους επανάσταση που θα μπορούσε να αλλάξει ολόκληρο τον κόσμο τους... ή να τον καταστρέψει...









Format                                   : AVI
Format/Info                              : Audio Video Interleave
File size                                : 1.22 GiB
Duration                                 : 1h 17mn
Overall bit rate                         : 2 244 Kbps

Video
ID                                       : 0
Format                                   : MPEG-4 Visual
Format profile                           : Advanced Simple@L5
Format settings, BVOP                    : 2
Format settings, QPel                    : No
Format settings, GMC                     : No warppoints
Format settings, Matrix                  : Default (H.263)
Codec ID                                 : XVID
Codec ID/Hint                            : XviD
Duration                                 : 1h 17mn
Bit rate                                 : 1 788 Kbps
Width                                    : 720 pixels
Height                                   : 400 pixels
Display aspect ratio                     : 16:9
Frame rate                               : 25.000 fps
Color space                              : YUV
Chroma subsampling                       : 4:2:0
Bit depth                                : 8 bits
Scan type                                : Progressive
Compression mode                         : Lossy
Bits/(Pixel*Frame)                       : 0.248
Stream size                              : 995 MiB (80%)
Writing library                          : XviD 1.2.1 (UTC 2008-12-04)

Audio
ID                                       : 1
Format                                   : AC-3
Format/Info                              : Audio Coding 3
Mode extension                           : CM (complete main)
Format settings, Endianness              : Big
Codec ID                                 : 2000
Duration                                 : 1h 17mn
Bit rate mode                            : Constant
Bit rate                                 : 448 Kbps
Channel(s)                               : 6 channels
Channel positions                        : Front: L C R, Side: L R, LFE
Sampling rate                            : 48.0 KHz
Bit depth                                : 16 bits
Compression mode                         : Lossy
Stream size                              : 249 MiB (20%)
Alignment                                : Aligned on interleaves
Interleave, duration                     : 64 ms (1.60 video frames)
Interleave, preload duration             : 192 ms

Κατεβάστε εδώ:
PLANHTHSXOYLK2010.avi

Η ΠΑΡΕΑ ΜΟΥ

 
Powered by Blogger